Geri git   x264 BluRay, BRRip DVDRip XviD, Yerli Dizi ve Türkçe Dublaj Film Paylaşım Forumu > Klipler > Yabancı Klipler

Mabel - Mad Love | (The Voice HDTV-1080i-MP2-WaRKeR)

Klipler Kategorisinde ve Yabancı Klipler Forumunda Bulunan Mabel - Mad Love | (The Voice HDTV-1080i-MP2-WaRKeR) Konusunu Görüntülemektesiniz, Konu İçerigi Kısaca ->> ReC.WaRKeR Kod: Format ...

Yeni Konu açCevapla
 
Konu Araçları
  #1  
Alt 23-10-2021, 11:56
 
Thumbs up Mabel - Mad Love | (The Voice HDTV-1080i-MP2-WaRKeR) Mabel - Mad Love | (The Voice HDTV-1080i-MP2-WaRKeR)

ReC.WaRKeR







Kod:
Format                      : MPEG-TS
File size                   : 156 MiB
Duration                    : 2 min 45 s
Overall bit rate mode       : Variable
Overall bit rate            : 7 903 kb/s

Video
ID                          : 1205 (0x4B5)
Menu ID                     : 241 (0xF1)
Format                      : AVC
Format/Info                 : Advanced Video Codec
Format profile              : [email protected]
Format settings             : CABAC / 4 Ref Frames
Format settings, CABAC      : Yes
Format settings, Reference  : 4 frames
Codec ID                    : 27
Duration                    : 2 min 45 s
Bit rate                    : 7 318 kb/s
Width                       : 1 920 pixels
Height                      : 1 080 pixels
Display aspect ratio        : 16:9
Frame rate                  : 25.000 FPS
Color space                 : YUV
Chroma subsampling          : 4:2:0
Bit depth                   : 8 bits
Scan type                   : Interlaced
Scan type, store method     : Separated fields
Scan order                  : Top Field First
Bits/(Pixel*Frame)          : 0.141
Stream size                 : 144 MiB (93%)
Color range                 : Limited
Color primaries             : BT.709
Transfer characteristics    : BT.709
Matrix coefficients         : BT.709

Audio
ID                          : 1206 (0x4B6)
Menu ID                     : 241 (0xF1)
Format                      : MPEG Audio
Format version              : Version 1
Format profile              : Layer 2
Codec ID                    : 3
Duration                    : 2 min 45 s
Bit rate mode               : Constant
Bit rate                    : 192 kb/s
Channel(s)                  : 2 channels
Sampling rate               : 48.0 kHz
Frame rate                  : 41.667 FPS (1152 SPF)
Compression mode            : Lossy
Delay relative to video     : -80 ms
Stream size                 : 3.78 MiB (2%)
Language                    : Bulgarian

[Sadece kayıtlı kullanıcılar linkleri görebilirler. ]

Alıntı ile Cevapla

WaRKeR tarafından açılan son 5 konu
Thread Forum Last Poster Replies Views Last Post
Mabel - Mad Love | (The Voice... Yabancı Klipler WaRKeR 0 585 23-10-2021 11:56
Doja Cat - Need To Know | (The Voice... Yabancı Klipler WaRKeR 0 81 23-10-2021 10:22
Çember - Tüm Bölümler │ FuLLHD │ 1080p │ 256k │... Yerli Sinema Filmleri WaRKeR 0 150 07-09-2021 05:37
Garip | HDTV | 1080p | x264 | AC3 | WaRKeR Restorasyonlu Filmler WaRKeR 0 175 23-07-2021 23:59
Baş Belası - Tüm Bölmler | HDTV | 1080p | X264 |... Eski Diziler WaRKeR 2 157 20-07-2021 18:10

Cevapla


Konuyu Toplam 1 Üye okuyor. (0 Kayıtlı üye ve 1 Misafir)
 
Konu Araçları


Benzer Konular
Konu Konuyu Başlatan Forum Cevaplar Son Mesaj
Doja Cat - Need To Know | (The Voice HDTV-1080i-MP2-WaRKeR) WaRKeR Yabancı Klipler 0 23-10-2021 10:22
Garip | HDTV | 1080p | x264 | AC3 | WaRKeR WaRKeR Restorasyonlu Filmler 0 23-07-2021 23:59
Kördüğüm | HDTV | 1080p | x264 | AC3 | WaRKeR WaRKeR Restorasyonlu Filmler 0 20-05-2021 23:44
The Voice Retroperjantai - We Love 90's [2CD] (2015) Full Albüm İndir godofwar2013 Yabancı Albümler 0 17-09-2015 15:21
Dream Tv Ana Sahne - Mabel Matiz | Turbobit | Mkv xXFrEeDyXx Televizyon Şov Programları 0 20-02-2013 04:28


Bütün Zaman Ayarları WEZ +3 olarak düzenlenmiştir. Şu Anki Saat: 20:12 .


Powered by vBulletin® Version 3.8.9
Copyright ©2000 - 2022, Jelsoft Enterprises Ltd.
bursa escort bursa escort bursa escort bursa escort bursa escort istanbul escort